Il y a actuellement 44 visiteurs
Lundi 11 Décembre 2017
accueilactualitésdossierscomparer les prixtélécharger gratuitement vos logicielsoffres d'emploiforum informatique
Connexion
Créer un compte

Coller 2 fichier vidéos

Vous rencontrez des soucis pour monter un film sur votre PC ? Votre matériel informatique refuse de lire un DIVX ou un fichier MP3 ? Vous avez besoin d'aide, alors posez vos questions sur ce forum d'entraide...

Coller 2 fichier vidéos

Message le 30 Jan 2010 16:42

Bonjour, je vien d'aquérir un enregistreur multimédia pour la télévision, j'ai donc choisit meilleur qualitée d'enregistrement mais le soucis c'est que l'appareil peut enregistrer que sur du FAT32. Donc a la fin du film je me retrouve donc avec un fichier de 4 Go et un de 800 Megas. j'aimerais donc bien les coller les deux ensemble pour en faire qu'un. (pourtan l'enregistreur lui ne voit qu'un seul fichier. les noms de fichier se terminent par: _R00(.mpeg) et le deuxième _R01(.mpeg)

Comment puis-je les réunir en un seul fichier. j'ai deja essayer avec Divx converter mais ils n'ont pas les même propriété alors il refuse de le faire.

Merci d'avance pour votre aide.
Calium videre AtOM, et eraos ad sidera tollere vultus (c'est de l'ancien)
Aveu amacos Amicus Etere
Quand on vois AtOM, on voit le ciel et tous sur terre doivent lever leurs visages vers les étoiles.
Au revoir Ami Éternel
Avatar de l'utilisateur
etienne2000
PC-Infopraticien
PC-Infopraticien
 
Messages: 2130
Inscription: 14 Avr 2006 18:39
Localisation: 4E 65 75 63 68 E2 74 65 6C 2F 53 75 69 73 73 65
 


Re: Coller 2 fichier vidéos

Message le 31 Jan 2010 13:40

voila un peu de nouveautée, les 2 fichier ne sont pas exactement les même (pas les même biterates)

Fichier 1:

Code: Tout sélectionner
General
Complete name                    : C:\Users\Etienne\Desktop\20100131_0029_R00.mpg
Format                           : MPEG-PS
File size                        : 4.00 GiB
Duration                         : 1h 0mn
Overall bit rate                 : 9 390 Kbps

Video
ID                               : 224 (0xE0)
Format                           : MPEG Video
Format version                   : Version 2
Format profile                   : Main@Main
Format settings, BVOP            : Yes
Format settings, Matrix          : Default
Duration                         : 1h 0mn
Bit rate mode                    : Variable
Bit rate                         : 8 761 Kbps
Nominal bit rate                 : 9 800 Kbps
Width                            : 720 pixels
Height                           : 576 pixels
Display aspect ratio             : 4:3
Frame rate                       : 25.000 fps
Standard                         : PAL
Resolution                       : 8 bits
Colorimetry                      : 4:2:0
Scan type                        : Interlaced
Scan order                       : Top Field First
Bits/(Pixel*Frame)               : 0.845
Stream size                      : 3.73 GiB (93%)

Audio
ID                               : 192 (0xC0)
Format                           : MPEG Audio
Format version                   : Version 1
Format profile                   : Layer 2
Duration                         : 1h 0mn
Bit rate mode                    : Constant
Bit rate                         : 256 Kbps
Channel(s)                       : 2 channels
Sampling rate                    : 48.0 KHz
Video delay                      : -99ms
Stream size                      : 112 MiB (3%)

Menu



Fichier 2:
Code: Tout sélectionner
General
Complete name                    : C:\Users\Etienne\Desktop\20100131_0029_R01.mpg
Format                           : MPEG-PS
File size                        : 832 MiB
Duration                         : 12mn 24s
Overall bit rate                 : 9 381 Kbps

Video
ID                               : 224 (0xE0)
Format                           : MPEG Video
Format version                   : Version 2
Format profile                   : Main@Main
Format settings, BVOP            : Yes
Format settings, Matrix          : Default
Duration                         : 12mn 24s
Bit rate mode                    : Variable
Bit rate                         : 8 752 Kbps
Nominal bit rate                 : 9 800 Kbps
Width                            : 720 pixels
Height                           : 576 pixels
Display aspect ratio             : 4:3
Frame rate                       : 25.000 fps
Standard                         : PAL
Resolution                       : 8 bits
Colorimetry                      : 4:2:0
Scan type                        : Interlaced
Scan order                       : Top Field First
Bits/(Pixel*Frame)               : 0.844
Stream size                      : 777 MiB (93%)

Audio
ID                               : 192 (0xC0)
Format                           : MPEG Audio
Format version                   : Version 1
Format profile                   : Layer 2
Duration                         : 12mn 24s
Bit rate mode                    : Constant
Bit rate                         : 256 Kbps
Channel(s)                       : 2 channels
Sampling rate                    : 48.0 KHz
Video delay                      : -379ms
Stream size                      : 22.7 MiB (3%)

Menu



ce qui fait que divx ne veut pas les compiler en un seul fichier. j'ai essayé de les convertire avec Mediacoder mais 3/4 des format ne fonctionne pas (pas de son mais vidéo, pas de vidéo que du son, pas de vidéo pas de son, etc...) et les cpnfiguration fonctionnels restantes ou il y as de la vidéo et u son Divx dis qu'il ne prend pas en charge ce format alors que sur le site web officiel il est marqué que oui.

J'ai essayé divers outils pour faire ceci mais pour l'instant aucun ne fonctionne.
j'ai aussi essayé de les convertire séparément avec Divx converter mais même si je met meme bitrates et mêmes paramètres, les vidéo sortes diférentes et donc ne peuvent pas etre mis ensemble par la suite.

Pourtant le lecteur multimédia de salon lis les 2 fichier d'une traite comme si il y en avais que un (R00 et R01). Existerais-il un programme pour compiler ces genres de fichier Mpeg ensemble ou une solution pour les convertire correctement?
Calium videre AtOM, et eraos ad sidera tollere vultus (c'est de l'ancien)
Aveu amacos Amicus Etere
Quand on vois AtOM, on voit le ciel et tous sur terre doivent lever leurs visages vers les étoiles.
Au revoir Ami Éternel
Avatar de l'utilisateur
etienne2000
PC-Infopraticien
PC-Infopraticien
 
Messages: 2130
Inscription: 14 Avr 2006 18:39
Localisation: 4E 65 75 63 68 E2 74 65 6C 2F 53 75 69 73 73 65
 

Re: Coller 2 fichier vidéos

Message le 02 Fév 2010 22:16

Salut,
il est normalement possible d'assembler les deux fichier via un logiciel de montage vidéo comme Movie Maker (gratuit) il faudra (si c'est Movie Maker) ensuite reconvertir le résultat DivX
La sagesse est une montagne dont la base est confondue avec le sommet
...Celui qui a été lumière jamais ne disparait.. il reste lumière, sentinelle dans l'éternité, son aura bienveillante nous montre le chemin.
Avatar de l'utilisateur
EinsteinZero
Moderateur
Moderateur
 
Messages: 14652
Inscription: 27 Déc 2009 16:22
Localisation: Normandie
 



Sujets similaires

Message supprimer fichier RESOLU
Bonjour,J'ai un problème , j'ai télécharger un fichier que je n'arrive plus à supprimer car il est introuvable. Merci de me donner la solution.
Réponses: 4

Message comment verifier l'integritée d'un fichier ISO sur WIN 10?
Salut tout le monde !Question simple : de crainte de télécharger un logiciel véroler je voudrait savoir sur Windows 10 en 2017 si il existe une ou plusieurs méthodes ou des logiciels surs et qui ont fait leurs preuves pour vérifier l?intégrité d'un fichier ISO que l'on a télécharger que ce soit u ...
Réponses: 4

Message Fichier excel à convertir et importer
Bonjour à toutes et tous ....Je vous expose mon soucis....Je viens d'acheter un logiciel de caisse EASY COMMERCE et je dois importer sur le logiciel 5000 produits que j'ai sur un tableau excel.Cependant je ne comprend pas comment je dois parametrer le fichier.Quelqu'un pourrait il m'aider si je lui ...
Réponses: 13

Message Logiciel de recherche de fichier avec interface simplifié
Bonjour, Je voudrais savoir s'il existe un logiciel qui permet de rechercher un fichier par son nom, son emplacement, son contenu de titre ou mot clé. Il faudrait que ce logiciel ai une interface (je ne sais pas si c'est le bon mot pour décrire ce dont j'aurais besoin), une sorte d'application, ou l ...
Réponses: 2

Message Déplacer fichier qui est sur ssd
Bonjour,J'ai récemment installé un ssd sur mon pc, et j'ai dans l'optique de virer le maximum de fichiers inutiles dessus. Mais il en reste un que je ne peux pas déplacer sur un DD, le fichier Utilisateur qui comporte un dossier Administrateur, Public et le miens.Le tout fait à peu près 50go sur un ...
Réponses: 1

Message supression fichier
Bonjour,je n'arrive pas a supprimer des fichiers sur un DD clic droit supprimer,j'ai un message d'erreur:http://www.cjoint.com/c/GJqkrT6wdkzCordialement
Réponses: 38

Message Petites vidéos sympas.
Après le pro de la dance, les pros de la casquette
Réponses: 1918


Qui est en ligne

Utilisateurs parcourant ce forum: Aucun utilisateur enregistré et 3 invités


.: Nous contacter :: Flux RSS :: Données personnelles :.